osu file format v14

[General]
AudioFilename: black bullet.mp3
AudioLeadIn: 1500
PreviewTime: 49537
Countdown: 0
SampleSet: Normal
StackLeniency: 0.7
Mode: 1
LetterboxInBreaks: 0
WidescreenStoryboard: 0

[Editor]
Bookmarks: 37537,43730
DistanceSpacing: 0.5
BeatDivisor: 4
GridSize: 4
TimelineZoom: 1.2

[Metadata]
Title:black bullet
TitleUnicode:black bullet
Artist:fripSide
ArtistUnicode:fripSide
Creator:-Sh1n1-
Version:Muzukashii
Source:ブラック・ブレット
Tags:opening Akemi_Homura 黒の銃弾
BeatmapID:430840
BeatmapSetID:179224

[Difficulty]
HPDrainRate:5
CircleSize:5
OverallDifficulty:5
ApproachRate:5
SliderMultiplier:1.4
SliderTickRate:1

[Events]
//Background and Video events
0,0,"BG.jpg",0,0
//Break Periods
//Storyboard Layer 0 (Background)
//Storyboard Layer 1 (Fail)
//Storyboard Layer 2 (Pass)
//Storyboard Layer 3 (Foreground)
//Storyboard Sound Samples

[TimingPoints]
376,387.096774193548,4,1,0,80,1,0
49924,-100,4,1,0,80,0,1
77795,-100,4,1,0,80,0,0

[HitObjects]
256,192,376,5,4,0:0:0:0:
256,192,763,1,8,0:0:0:0:
256,192,956,1,0,0:0:0:0:
256,192,1343,1,0,0:0:0:0:
256,192,1537,1,8,0:0:0:0:
256,192,1730,1,0,0:0:0:0:
256,192,2117,1,8,0:0:0:0:
256,192,2311,1,0,0:0:0:0:
256,192,2505,1,8,0:0:0:0:
256,192,2892,1,0,0:0:0:0:
256,192,3085,1,8,0:0:0:0:
256,192,3279,1,0,0:0:0:0:
256,192,3666,1,8,0:0:0:0:
256,192,3859,1,0,0:0:0:0:
256,192,4053,1,8,0:0:0:0:
256,192,4440,1,0,0:0:0:0:
256,192,4827,1,12,0:0:0:0:
256,192,5214,1,12,0:0:0:0:
256,192,5601,1,4,0:0:0:0:
256,192,5988,1,12,0:0:0:0:
256,192,6182,1,12,0:0:0:0:
256,192,6569,1,4,0:0:0:0:
256,192,6956,1,0,0:0:0:0:
256,192,7150,1,8,0:0:0:0:
256,192,7537,1,0,0:0:0:0:
256,192,7924,1,8,0:0:0:0:
256,192,8311,1,0,0:0:0:0:
256,192,8698,1,8,0:0:0:0:
256,192,9085,1,8,0:0:0:0:
256,192,9279,1,0,0:0:0:0:
256,192,9666,1,12,0:0:0:0:
256,192,10053,1,0,0:0:0:0:
256,192,10246,1,8,0:0:0:0:
256,192,10634,1,0,0:0:0:0:
256,192,11021,1,8,0:0:0:0:
256,192,11408,1,0,0:0:0:0:
256,192,11795,1,8,0:0:0:0:
256,192,12182,1,12,0:0:0:0:
256,192,12375,1,12,0:0:0:0:
256,192,12763,1,4,0:0:0:0:
256,192,13150,1,0,0:0:0:0:
256,192,13537,1,8,0:0:0:0:
256,192,13924,1,8,0:0:0:0:
256,192,14117,1,0,0:0:0:0:
256,192,14311,1,0,0:0:0:0:
256,192,14698,1,0,0:0:0:0:
256,192,15085,1,8,0:0:0:0:
256,192,15859,1,0,0:0:0:0:
256,192,16246,1,0,0:0:0:0:
256,192,16634,1,8,0:0:0:0:
256,192,17021,1,0,0:0:0:0:
256,192,17214,1,0,0:0:0:0:
256,192,17408,1,8,0:0:0:0:
256,192,17795,1,8,0:0:0:0:
256,192,18182,1,0,0:0:0:0:
256,192,18956,1,8,0:0:0:0:
256,192,19343,1,0,0:0:0:0:
256,192,19730,1,8,0:0:0:0:
256,192,20117,1,0,0:0:0:0:
256,192,20311,1,0,0:0:0:0:
256,192,20505,1,8,0:0:0:0:
256,192,20892,1,0,0:0:0:0:
256,192,21279,1,8,0:0:0:0:
256,192,22053,1,8,0:0:0:0:
256,192,22440,1,0,0:0:0:0:
256,192,22634,1,0,0:0:0:0:
256,192,22827,1,8,0:0:0:0:
256,192,23214,1,0,0:0:0:0:
256,192,23601,1,8,0:0:0:0:
256,192,23988,1,8,0:0:0:0:
256,192,24182,1,0,0:0:0:0:
256,192,24375,1,8,0:0:0:0:
256,192,24569,1,8,0:0:0:0:
256,192,24763,1,8,0:0:0:0:
256,192,25150,1,12,0:0:0:0:
256,192,25537,1,8,0:0:0:0:
256,192,25730,1,0,0:0:0:0:
256,192,25924,1,8,0:0:0:0:
256,192,26311,1,8,0:0:0:0:
256,192,26698,1,0,0:0:0:0:
256,192,27085,1,8,0:0:0:0:
256,192,27279,1,8,0:0:0:0:
256,192,27472,1,0,0:0:0:0:
256,192,27859,1,8,0:0:0:0:
256,192,28246,1,0,0:0:0:0:
256,192,28634,1,0,0:0:0:0:
256,192,28827,1,8,0:0:0:0:
256,192,29021,1,0,0:0:0:0:
256,192,29408,1,8,0:0:0:0:
256,192,29601,1,0,0:0:0:0:
256,192,29795,1,0,0:0:0:0:
256,192,30182,1,8,0:0:0:0:
256,192,30375,1,0,0:0:0:0:
256,192,30569,1,8,0:0:0:0:
256,192,30763,1,8,0:0:0:0:
256,192,30956,1,8,0:0:0:0:
256,192,31343,1,8,0:0:0:0:
256,192,31730,1,0,0:0:0:0:
256,192,31924,1,0,0:0:0:0:
256,192,32117,1,8,0:0:0:0:
256,192,32505,1,8,0:0:0:0:
256,192,32892,1,8,0:0:0:0:
256,192,33279,1,8,0:0:0:0:
256,192,33472,1,8,0:0:0:0:
256,192,33666,1,0,0:0:0:0:
256,192,34053,1,8,0:0:0:0:
256,192,34440,1,12,0:0:0:0:
256,192,34827,1,8,0:0:0:0:
256,192,35021,1,0,0:0:0:0:
256,192,35214,1,12,0:0:0:0:
256,192,35601,1,0,0:0:0:0:
256,192,35795,1,0,0:0:0:0:
256,192,35988,1,12,0:0:0:0:
256,192,36375,1,8,0:0:0:0:
256,192,36569,1,0,0:0:0:0:
256,192,36763,1,8,0:0:0:0:
256,192,36956,1,8,0:0:0:0:
256,192,37150,1,0,0:0:0:0:
256,192,37537,1,4,0:0:0:0:
256,192,37924,1,0,0:0:0:0:
256,192,38311,1,8,0:0:0:0:
256,192,38698,1,8,0:0:0:0:
256,192,38892,1,0,0:0:0:0:
256,192,39085,1,8,0:0:0:0:
256,192,39472,1,8,0:0:0:0:
256,192,39666,1,0,0:0:0:0:
256,192,39859,1,0,0:0:0:0:
256,192,40634,1,8,0:0:0:0:
256,192,41021,1,0,0:0:0:0:
256,192,41408,1,8,0:0:0:0:
256,192,41795,1,8,0:0:0:0:
256,192,41988,1,0,0:0:0:0:
256,192,42182,1,8,0:0:0:0:
256,192,42569,1,8,0:0:0:0:
256,192,42763,1,0,0:0:0:0:
256,192,42956,1,0,0:0:0:0:
256,192,43730,1,0,0:0:0:0:
256,192,44117,1,8,0:0:0:0:
256,192,44311,1,0,0:0:0:0:
256,192,44505,1,8,0:0:0:0:
256,192,44892,1,8,0:0:0:0:
256,192,45279,1,0,0:0:0:0:
256,192,45569,1,0,0:0:0:0:
256,192,45859,1,8,0:0:0:0:
256,192,46053,1,0,0:0:0:0:
256,192,46343,1,8,0:0:0:0:
256,192,46634,1,8,0:0:0:0:
256,192,46827,1,0,0:0:0:0:
256,192,47117,1,8,0:0:0:0:
256,192,47408,1,8,0:0:0:0:
256,192,47601,1,0,0:0:0:0:
256,192,47892,1,8,0:0:0:0:
256,192,48182,1,8,0:0:0:0:
256,192,48375,1,4,0:0:0:0:
256,192,48666,1,12,0:0:0:0:
256,192,48956,1,12,0:0:0:0:
256,192,49537,1,0,0:0:0:0:
256,192,49730,1,0,0:0:0:0:
256,192,49924,1,12,0:0:0:0:
256,192,50311,1,8,0:0:0:0:
256,192,50505,1,0,0:0:0:0:
256,192,50698,1,8,0:0:0:0:
256,192,51085,1,8,0:0:0:0:
256,192,51279,1,8,0:0:0:0:
256,192,51472,1,0,0:0:0:0:
256,192,51569,1,0,0:0:0:0:
256,192,51666,1,0,0:0:0:0:
256,192,51859,1,8,0:0:0:0:
256,192,52053,1,0,0:0:0:0:
256,192,52246,1,8,0:0:0:0:
256,192,52634,1,0,0:0:0:0:
256,192,52827,1,0,0:0:0:0:
256,192,53021,1,8,0:0:0:0:
256,192,53408,1,8,0:0:0:0:
256,192,53601,1,0,0:0:0:0:
256,192,53795,1,8,0:0:0:0:
256,192,54182,1,8,0:0:0:0:
256,192,54375,1,8,0:0:0:0:
256,192,54569,1,0,0:0:0:0:
256,192,54666,1,0,0:0:0:0:
256,192,54763,1,0,0:0:0:0:
256,192,54956,1,8,0:0:0:0:
256,192,55343,1,0,0:0:0:0:
256,192,55730,1,0,0:0:0:0:
256,192,55924,1,8,0:0:0:0:
256,192,56117,1,8,0:0:0:0:
256,192,56505,1,0,0:0:0:0:
256,192,56698,1,8,0:0:0:0:
256,192,56892,1,0,0:0:0:0:
256,192,57279,1,8,0:0:0:0:
256,192,57472,1,0,0:0:0:0:
256,192,57666,1,8,0:0:0:0:
256,192,57763,1,8,0:0:0:0:
256,192,57859,1,8,0:0:0:0:
256,192,58053,1,0,0:0:0:0:
256,192,58246,1,8,0:0:0:0:
256,192,58440,1,8,0:0:0:0:
256,192,59021,1,8,0:0:0:0:
256,192,59214,1,0,0:0:0:0:
256,192,59505,1,8,0:0:0:0:
256,192,59795,1,0,0:0:0:0:
256,192,59988,1,8,0:0:0:0:
256,192,60375,1,8,0:0:0:0:
256,192,60763,1,4,0:0:0:0:
256,192,61053,1,4,0:0:0:0:
256,192,61343,1,12,0:0:0:0:
256,192,61537,1,12,0:0:0:0:
256,192,61924,1,0,0:0:0:0:
256,192,62117,1,0,0:0:0:0:
256,192,62311,1,12,0:0:0:0:
256,192,62698,1,8,0:0:0:0:
256,192,62892,1,0,0:0:0:0:
256,192,63085,1,8,0:0:0:0:
256,192,63472,1,8,0:0:0:0:
256,192,63666,1,8,0:0:0:0:
256,192,63859,1,0,0:0:0:0:
256,192,63956,1,0,0:0:0:0:
256,192,64053,1,0,0:0:0:0:
256,192,64246,1,8,0:0:0:0:
256,192,64440,1,0,0:0:0:0:
256,192,64634,1,8,0:0:0:0:
256,192,65021,1,8,0:0:0:0:
256,192,65214,1,0,0:0:0:0:
256,192,65408,1,8,0:0:0:0:
256,192,65795,1,0,0:0:0:0:
256,192,65988,1,8,0:0:0:0:
256,192,66182,1,0,0:0:0:0:
256,192,66569,1,8,0:0:0:0:
256,192,66763,1,8,0:0:0:0:
256,192,66956,1,0,0:0:0:0:
256,192,67053,1,0,0:0:0:0:
256,192,67150,1,0,0:0:0:0:
256,192,67343,1,8,0:0:0:0:
256,192,67730,1,0,0:0:0:0:
256,192,68117,1,0,0:0:0:0:
256,192,68311,1,8,0:0:0:0:
256,192,68505,1,8,0:0:0:0:
256,192,68892,1,8,0:0:0:0:
256,192,69085,1,0,0:0:0:0:
256,192,69279,1,8,0:0:0:0:
256,192,69666,1,0,0:0:0:0:
256,192,69859,1,0,0:0:0:0:
256,192,70053,1,8,0:0:0:0:
256,192,70150,1,8,0:0:0:0:
256,192,70246,1,8,0:0:0:0:
256,192,70440,1,8,0:0:0:0:
256,192,70634,1,0,0:0:0:0:
256,192,70827,1,8,0:0:0:0:
256,192,71408,1,8,0:0:0:0:
256,192,71601,1,0,0:0:0:0:
256,192,71892,1,8,0:0:0:0:
256,192,72182,1,0,0:0:0:0:
256,192,72375,1,8,0:0:0:0:
256,192,72763,1,8,0:0:0:0:
256,192,73150,1,4,0:0:0:0:
256,192,73440,1,4,0:0:0:0:
256,192,73730,1,12,0:0:0:0:
256,192,73924,1,12,0:0:0:0:
256,192,74698,1,4,0:0:0:0:
256,192,74988,1,8,0:0:0:0:
256,192,75279,1,8,0:0:0:0:
256,192,75472,1,0,0:0:0:0:
256,192,75763,1,0,0:0:0:0:
256,192,76053,1,8,0:0:0:0:
320,192,76246,2,0,B|320:146|277:110|225:120|201:154,3,140,,,0:0:0:0:
256,192,77795,1,4,0:0:0:0:
256,192,78182,1,0,0:0:0:0:
256,192,78375,1,8,0:0:0:0:
256,192,78763,1,0,0:0:0:0:
256,192,79150,1,8,0:0:0:0:
256,192,79537,1,0,0:0:0:0:
256,192,79924,1,8,0:0:0:0:
256,192,80311,1,8,0:0:0:0:
256,192,80505,1,0,0:0:0:0:
256,192,80892,1,12,0:0:0:0:
256,192,81279,1,0,0:0:0:0:
256,192,81472,1,8,0:0:0:0:
256,192,81859,1,0,0:0:0:0:
256,192,82246,1,8,0:0:0:0:
256,192,82634,1,8,0:0:0:0:
256,192,82827,1,0,0:0:0:0:
256,192,83021,1,8,0:0:0:0:
256,192,83408,1,12,0:0:0:0:
256,192,83601,1,12,0:0:0:0:
256,192,83988,1,8,0:0:0:0:
256,192,84085,1,8,0:0:0:0:
256,192,84182,1,8,0:0:0:0:
256,192,84375,1,4,0:0:0:0:
